<?xml version="1.0" standalone="no"?>
<!DOCTYPE svg PUBLIC "-//W3C//DTD SVG 1.1//EN" "http://www.w3.org/Graphics/SVG/1.1/DTD/svg11.dtd" >
<svg xmlns="http://www.w3.org/2000/svg">
<metadata>Generated by IcoMoon</metadata>
<defs>
<font id="Genesis-Icons--MVL" horiz-adv-x="1024">
<font-face units-per-em="1024" ascent="960" descent="-64" />
<missing-glyph horiz-adv-x="1024" />
<glyph unicode="&#x20;" horiz-adv-x="512" d="" />
<glyph unicode="&#xe900;" glyph-name="chat" d="M521.052 599.173c-35.511-0.029-64.287-28.823-64.287-64.338 0-35.533 28.805-64.338 64.338-64.338s64.338 28.805 64.338 64.338v0c-0.035 35.537-28.848 64.332-64.389 64.338v0zM383.089 534.917c-0.043 35.528-28.855 64.313-64.389 64.313-35.561 0-64.389-28.828-64.389-64.389s28.828-64.389 64.389-64.389c17.799 0 33.912 7.222 45.567 18.896l0.001 0.001c11.626 11.547 18.822 27.541 18.822 45.216 0 0.095 0 0.19-0.001 0.284v-0.015h-13.24zM782.612 534.835c0 35.544-28.814 64.358-64.358 64.358s-64.358-28.814-64.358-64.358c0-35.537 28.803-64.347 64.337-64.358h0.001c35.539 0.023 64.344 28.821 64.379 64.355v0.003zM675.441 898.56h-328.284c-192.476-2.19-347.664-158.731-347.664-351.518 0-192.845 155.281-349.422 347.63-351.518l0.198-0.002h80.425l269.988-200.038v201.728c183.577 12.604 327.719 164.609 327.719 350.281 0 193.516-156.578 350.461-349.954 351.056h-0.057zM623.217 270.1v-126.853l-170.322 126.853h-105.708c-0.686-0.006-1.497-0.010-2.309-0.010-75.616 0-144.246 29.913-194.702 78.551l0.086-0.082c-51.693 50.371-83.758 120.669-83.758 198.457 0 151.63 121.837 274.804 272.954 276.963l0.203 0.002h335.718c0.017 0 0.036 0 0.056 0 152.956 0 276.951-123.995 276.951-276.951 0-152.936-123.963-276.919-276.891-276.951h-52.227z" />
<glyph unicode="&#xe901;" glyph-name="arrow-down" d="M544 832.32c-17.664 0-32-14.336-32-32v-626.752l-137.344 137.344c-12.48 12.48-32.768 12.48-45.248 0s-12.48-32.768 0-45.248l192-192c0.064-0.064 0.192-0.064 0.256-0.192 2.88-2.816 6.336-5.184 10.112-6.72 7.808-3.264 16.64-3.264 24.448 0 3.904 1.6 7.424 3.968 10.368 6.912l192 192c12.48 12.48 12.48 32.768 0 45.248s-32.768 12.48-45.248 0l-137.344-137.344v626.752c0 17.664-14.336 32-32 32z" />
<glyph unicode="&#xe902;" glyph-name="history" d="M512 960c282.77 0 512-229.23 512-512s-229.23-512-512-512c-282.77 0-512 229.23-512 512v0c0.327 282.638 229.362 511.672 511.968 512h0.032zM512 888.544c-243.306 0-440.544-197.238-440.544-440.544s197.238-440.544 440.544-440.544c243.306 0 440.544 197.238 440.544 440.544v0c0 0.152 0 0.332 0 0.512 0 243.023-197.009 440.032-440.032 440.032-0.18 0-0.36 0-0.54 0h0.028zM512 817.088c19.716-0.018 35.694-15.996 35.712-35.71v-333.378c-0.018-19.716-15.996-35.694-35.71-35.712h-309.57c-19.732 0-35.728 15.996-35.728 35.728s15.996 35.728 35.728 35.728v0h273.856v297.6c0 0.010 0 0.021 0 0.032 0 19.73 15.985 35.726 35.71 35.744h0.002z" />
<glyph unicode="&#xe903;" glyph-name="grid" d="M819.015-64v204.918h204.985v-204.918zM409.415-64v204.918h204.8v-204.918zM0-64v204.918h204.8v-204.918zM819.015 345.516v204.968h204.985v-204.968zM409.415 345.516v204.968h204.8v-204.968zM0 345.516v204.968h204.8v-204.968zM819.015 755.116v204.884h204.985v-204.918zM409.415 755.116v204.884h204.8v-204.918zM0 755.082v204.918h204.8v-204.918z" />
<glyph unicode="&#xe904;" glyph-name="arrow-up" d="M544 64.32c17.664 0 32 14.336 32 32v626.752l137.344-137.344c12.48-12.48 32.768-12.48 45.248 0s12.48 32.768 0 45.248l-192 192c-2.944 2.944-6.464 5.248-10.368 6.848-7.808 3.264-16.64 3.264-24.448 0-3.84-1.536-7.232-3.84-10.176-6.72-0.064-0.064-0.128-0.064-0.256-0.128l-192-192c-12.48-12.48-12.48-32.768 0-45.248s32.768-12.48 45.248 0l137.408 137.344v-626.752c0-17.664 14.336-32 32-32z" />
<glyph unicode="&#xe905;" glyph-name="list" d="M243.808 80.565v146.974h780.192v-146.974zM0 80.565v146.974h146.275v-146.974zM243.808 374.513v146.974h780.192v-146.974zM0 374.513v146.974h146.275v-146.974zM243.808 668.461v146.974h780.192v-146.974zM0 668.461v146.974h146.275v-146.974z" />
<glyph unicode="&#xe906;" glyph-name="bag-full" d="M192-63.68h640c35.328 0 64 28.672 64 64v704c0 35.328-28.672 64-64 64h-128.32c-1.536 106.304-86.656 192-191.68 192s-190.144-85.696-191.68-192h-128.32c-35.328 0-64-28.672-64-64v-704c0-35.328 28.672-64 64-64zM608 576.32h-192c-17.664 0-32 14.336-32 32s14.336 32 32 32h192c17.664 0 32-14.336 32-32s-14.336-32-32-32zM512 896.32c69.568 0 126.144-57.152 127.68-128h-255.36c1.536 70.848 58.112 128 127.68 128z" />
<glyph unicode="&#xe907;" glyph-name="balance" d="M56.608 512l103.392 165.44 103.392-165.44h56.608l-160 256-160-256zM256 320l64 64v64h-320v-64l64-64zM696.608 512l103.392 165.44 103.392-165.44h56.608l-160 256-160-256zM640 384l64-64h192l64 64v64h-320zM512 128v581.472c27.264 9.632 48.864 31.232 58.528 58.528h261.472v64h-261.472c-13.184 37.28-48.704 64-90.528 64s-77.344-26.72-90.528-64h-261.472v-64h261.472c9.632-27.264 31.232-48.864 58.528-58.528v-581.472h-320l-64-128h832l-64 128h-320zM433.6 800c0 25.632 20.768 46.4 46.4 46.4s46.4-20.768 46.4-46.4c0-25.632-20.768-46.4-46.4-46.4s-46.4 20.768-46.4 46.4z" />
<glyph unicode="&#xe908;" glyph-name="calendar" d="M0 0c0-35.36 28.64-64 64-64h896c35.36 0 64 28.64 64 64v576h-1024v-576zM704 512h256v-128h-256v128zM704 320h256v-128h-256v128zM704 128h256v-128h-256v128zM384 512h256v-128h-256v128zM384 320h256v-128h-256v128zM384 128h256v-128h-256v128zM64 512h256v-128h-256v128zM64 320h256v-128h-256v128zM64 128h256v-128h-256v128zM960 832h-128v91.424c0 20.192-14.336 36.576-32 36.576s-32-16.384-32-36.576v-91.424h-512v91.424c0 20.192-14.336 36.576-32 36.576s-32-16.384-32-36.576v-91.424h-128c-35.36 0-64-28.64-64-64v-128h1024v128c0 35.36-28.64 64-64 64zM224 672c-35.36 0-64 28.64-64 64 0 23.68 12.864 44.352 32 55.424v-55.424c0-17.664 14.336-32 32-32s32 14.336 32 32v55.424c19.136-11.072 32-31.744 32-55.424 0-35.36-28.64-64-64-64zM800 672c-35.36 0-64 28.64-64 64 0 23.68 12.864 44.352 32 55.424v-55.424c0-17.664 14.336-32 32-32s32 14.336 32 32v55.424c19.136-11.072 32-31.744 32-55.424 0-35.36-28.64-64-64-64z" />
<glyph unicode="&#xe909;" glyph-name="cart-add" d="M977.568 765.536c33.984-9.696 53.664-45.12 43.968-79.136l-128-448c-7.84-27.488-32.96-46.432-61.536-46.432h-544c-32.288 0-59.488 24.032-63.52 56.064l-56.992 455.936h-103.488c-35.36 0-64 28.64-64 64s28.64 64 64 64h160c32.288 0 59.488-24.032 63.52-56.064l56.992-455.936h439.232l114.752 401.568c9.696 33.984 45.12 53.664 79.136 43.968zM256 32c0-53.024 42.976-96 96-96s96 42.976 96 96c0 53.024-42.976 96-96 96s-96-42.976-96-96zM640 32c0-53.024 42.976-96 96-96s96 42.976 96 96c0 53.024-42.976 96-96 96s-96-42.976-96-96zM364 640h148v192h128v-192h148l-212-228z" />
<glyph unicode="&#xe90a;" glyph-name="cart-empty" d="M192 0.32c0-35.36 28.64-64 64-64s64 28.64 64 64c0 35.36-28.64 64-64 64s-64-28.64-64-64zM768 0.32c0-35.36 28.64-64 64-64s64 28.64 64 64c0 35.36-28.64 64-64 64s-64-28.64-64-64zM-1.856 800.32c0-17.664 14.336-32 32-32h66.496l39.744-169.984 55.616-278.016c0-2.304 1.088-4.288 1.344-6.528l-32.576-146.56c-2.112-9.472 0.192-19.392 6.272-26.944 6.080-7.616 15.232-11.968 24.96-11.968h726.016c17.664 0 32 14.336 32 32s-14.336 32-32 32h-686.080l14.656 65.92c3.2-0.512 6.080-1.92 9.408-1.92h583.36c35.328 0 56.64 6.976 73.664 48l103.936 318.848c18.048 57.152-21.568 81.152-56.96 81.152h-768c-4.992 0-9.344-1.728-14.016-2.816l-24.832 106.112c-3.392 14.464-16.256 24.704-31.168 24.704h-91.84c-17.728 0-32-14.336-32-32zM193.28 640.32h761.92l-102.144-313.536c-1.216-2.752-2.24-4.736-3.008-6.080-2.112-0.192-5.44-0.384-10.688-0.384h-583.36v6.336l-1.216 6.208-61.504 307.456z" />
<glyph unicode="&#xe90b;" glyph-name="cart-full" d="M960 704.32h-768c-4.992 0-9.344-1.728-14.016-2.816l-24.832 106.112c-3.392 14.464-16.256 24.704-31.168 24.704h-91.84c-17.664 0-32-14.336-32-32s14.272-32 32-32h66.496l39.744-169.984 55.616-278.016c0-2.304 1.088-4.288 1.344-6.528l-32.576-146.56c-2.112-9.472 0.192-19.392 6.272-26.944 6.080-7.616 15.232-11.968 24.96-11.968h726.016c17.664 0 32 14.336 32 32s-14.336 32-32 32h-686.080l14.656 65.92c3.2-0.512 6.080-1.92 9.408-1.92h583.36c35.328 0 56.64 6.976 73.664 48l103.936 318.848c18.048 57.152-21.568 81.152-56.96 81.152zM192 0.32c0-35.36 28.64-64 64-64s64 28.64 64 64c0 35.36-28.64 64-64 64s-64-28.64-64-64zM768 0.32c0-35.36 28.64-64 64-64s64 28.64 64 64c0 35.36-28.64 64-64 64s-64-28.64-64-64z" />
<glyph unicode="&#xe90c;" glyph-name="hide" d="M177.201 128.707c-3.316 3.147-5.38 7.586-5.38 12.507s2.063 9.361 5.372 12.5l0.008 0.007 274.611 266.484 97.589 95.232c0.13-0.13 0.325-0.13 0.374-0.26l260.437 252.7c3.361 3.214 7.927 5.192 12.954 5.192s9.594-1.978 12.961-5.199l-0.007 0.007c3.405-3.141 5.53-7.625 5.53-12.605s-2.125-9.464-5.518-12.594l-0.012-0.011-358.66-348.193s-0.13 0-0.13 0l-274.026-265.834c-3.407-3.221-8.016-5.201-13.088-5.201-0.022 0-0.044 0-0.065 0h0.003c-0.020 0-0.044 0-0.068 0-5.020 0-9.57 2.010-12.889 5.269l0.003-0.003zM346.908 218.234l69.713 67.682c28.475-15.628 62.395-24.821 98.463-24.821 0.207 0 0.414 0 0.621 0.001h-0.032c0.957-0.017 2.085-0.026 3.216-0.026 108.851 0 197.319 87.268 199.257 195.656l0.003 0.182c-0.084 35.164-9.596 68.089-26.14 96.403l0.492-0.911 99.491 96.386c33.729-18.343 61.779-35.842 88.756-54.766l-2.919 1.94c40.464-28.234 75.864-56.859 109.137-87.744l-0.625 0.574c11.378-10.533 38.408-38.099 40.31-40.196 2.752-3.094 4.434-7.194 4.434-11.687s-1.681-8.592-4.449-11.704l0.016 0.018c-1.902-2.097-28.948-29.647-40.31-40.196-32.646-30.31-68.046-58.935-105.328-85.057l-3.183-2.113c-115.403-79.937-237.779-128.13-362.155-128.13-60.515 0.413-118.464 10.82-172.466 29.648l3.75-1.138zM153.194 317.854c-40.409 28.25-75.765 56.873-109.006 87.744l0.625-0.573c-11.492 10.533-38.538 38.099-40.375 40.196-2.774 3.082-4.471 7.182-4.471 11.678s1.697 8.596 4.485 11.694l-0.014-0.016c1.837 2.097 28.883 29.647 40.375 40.196 32.616 30.297 67.973 58.92 105.203 85.055l3.179 2.115c115.403 79.937 237.909 128.13 362.463 128.13 60.463-0.409 118.363-10.816 172.311-29.646l-3.741 1.137-69.892-67.682c-28.464 15.627-62.373 24.82-98.429 24.82-0.105 0-0.209 0-0.314 0h0.016c-1.015 0.019-2.212 0.029-3.412 0.029-108.865 0-197.349-87.262-199.321-195.656l-0.003-0.185c0-0.076 0-0.166 0-0.255 0-35.081 9.526-67.937 26.132-96.123l-0.483 0.887-99.426-96.386c-33.739 18.354-61.794 35.858-88.778 54.786l2.924-1.944zM518.778 384.138v0.26l68.267 66.089c-2.415-36.242-31.7-64.912-67.985-66.344l-0.136-0.004zM443.538 462.872c4.73 32.073 30.401 56.924 62.478 60.356l0.311 0.027-62.789-60.579z" />
<glyph unicode="&#xe90d;" glyph-name="view" d="M346.957 193.642l69.681 71.030c28.445-16.358 62.547-26.006 98.901-26.006 0.007 0 0.014 0 0.021 0h-0.001c112.019 0.899 202.481 91.917 202.481 204.062 0 0.499-0.002 0.998-0.005 1.497v-0.076c0 0.008 0 0.018 0 0.028 0 36.757-9.43 71.312-26.002 101.378l0.549-1.086 99.393 100.872c33.192-18.651 61.222-36.933 87.991-56.816l-2.187 1.552c40.184-29.366 75.601-59.395 108.739-91.748l-0.195 0.189c11.378-11.069 38.343-39.903 40.31-42.13 2.759-3.272 4.436-7.535 4.436-12.19s-1.677-8.918-4.459-12.219l0.023 0.028c-1.967-2.243-28.916-31.354-40.31-42.13-32.924-32.272-68.346-62.322-105.831-89.717l-2.713-1.891c-115.208-84.049-237.584-134.453-362.22-134.453-60.572 0.415-118.47 11.311-172.148 30.961l3.546-1.135zM153.307 298.268c-40.223 29.231-75.659 59.283-108.719 91.746l0.142-0.139c-11.378 10.776-38.571 39.887-40.31 42.13-2.759 3.272-4.436 7.535-4.436 12.19s1.677 8.918 4.459 12.219l-0.023-0.028c1.739 2.227 28.916 31.061 40.31 42.13 32.938 32.215 68.368 62.247 105.842 89.652l2.734 1.907c115.176 83.838 237.584 134.274 362.252 134.274 60.605-0.446 118.52-11.37 172.216-31.045l-3.548 1.137-70.006-70.705c-28.264 16.236-62.142 25.812-98.257 25.812-0.142 0-0.284 0-0.426 0h0.022c-112.032-0.789-202.546-91.791-202.546-203.934 0-0.539 0.002-1.077 0.006-1.615l-0.001 0.083c0-0.051 0-0.111 0-0.17 0-36.678 9.544-71.127 26.284-100.998l-0.538 1.044-99.686-101.116c-33.327 18.98-61.337 37.307-88.18 57.123l2.408-1.697zM442.856 441.060c-0.001 0.131-0.001 0.287-0.001 0.442 0 39.982 32.224 72.438 72.117 72.814h0.036c39.977-0.349 72.25-32.838 72.25-72.864 0-0.138 0-0.276-0.001-0.414v0.021c0.001-0.131 0.001-0.286 0.001-0.441 0-40.020-32.277-72.501-72.219-72.831h-0.031c-39.927 0.367-72.153 32.82-72.153 72.799 0 0.167 0.001 0.333 0.002 0.5v-0.026z" />
<glyph unicode="&#xe90e;" glyph-name="plus-circle" d="M5.11 447.868c0 0.036 0 0.079 0 0.122 0 279.992 226.979 506.971 506.971 506.971s506.971-226.979 506.971-506.971c0-279.992-226.978-506.97-506.97-506.971h-0.001c-279.778 0.426-506.475 227.081-506.971 506.802v0.047zM55.929 447.868c0-251.993 204.281-456.274 456.274-456.274s456.274 204.281 456.274 456.274c0 251.993-204.281 456.274-456.274 456.274v0c-251.881-0.3-455.991-204.396-456.314-456.243v-0.031zM489.369 259.488v156.37h-156.269c-14.22 0.666-25.58 12.030-26.239 26.19l-0.002 0.061c-0.033 0.505-0.051 1.094-0.051 1.688 0 14.84 11.593 26.972 26.216 27.834l0.076 0.004h156.269v156.37c-0.006 0.224-0.010 0.488-0.010 0.752 0 15.405 12.488 27.894 27.894 27.894s27.894-12.488 27.894-27.894c0-0.264-0.004-0.528-0.011-0.791l0.001 0.039v-156.613h156.269c14.102-0.739 25.371-11.913 26.257-25.907l0.004-0.080c0.035-0.523 0.055-1.134 0.055-1.75 0-14.891-11.584-27.076-26.232-28.035l-0.084-0.004h-156.269v-156.147c-0.781-14.165-12.075-25.456-26.17-26.228l-0.071-0.003c-0.578 0-1.227-0.081-1.825-0.081-14.783 0.127-26.828 11.68-27.737 26.252l-0.004 0.080z" />
<glyph unicode="&#xe90f;" glyph-name="minus-circle" d="M5.069 448.035c0.040 279.915 226.965 506.815 506.886 506.815 279.945 0 506.886-226.94 506.886-506.886s-226.94-506.886-506.886-506.886v0c-279.833 0.34-506.586 227.118-506.886 506.927v0.029zM55.757 448.035c0.040-251.881 204.239-456.055 456.126-456.055 251.911 0 456.126 204.215 456.126 456.126s-204.215 456.126-456.126 456.126c-0.004 0-0.007 0-0.011 0h0.001c-251.784-0.352-455.793-204.402-456.075-456.17v-0.027zM332.74 415.889c-14.758 0.821-26.415 12.988-26.415 27.879s11.657 27.058 26.343 27.875l0.073 0.003 368.486-0.101c14.684-0.913 26.247-13.045 26.247-27.879s-11.563-26.966-26.168-27.875l-0.080-0.004s-122.96-0.010-368.445 0.091z" />
<glyph unicode="&#xe910;" glyph-name="add" d="M511.988 960c-37.206 0-67.368-30.161-67.368-67.368v0-377.253h-377.253c-37.206 0-67.368-30.161-67.368-67.368s30.161-67.368 67.368-67.368v0h377.253v-377.277c0-37.206 30.161-67.368 67.368-67.368s67.368 30.161 67.368 67.368v0 377.277h377.277c37.206 0 67.368 30.161 67.368 67.368s-30.161 67.368-67.368 67.368v0h-377.277v377.253c0 37.206-30.161 67.368-67.368 67.368v0z" />
<glyph unicode="&#xe911;" glyph-name="credit-card" d="M960 832.32h-896c-35.328 0-64-28.672-64-64v-640c0-35.328 28.672-64 64-64h896c35.328 0 64 28.672 64 64v640c0 35.328-28.672 64-64 64zM960 128.32h-896v384h896v-384zM64 637.632v130.688h896v-130.688h-896zM160 192.32h320c17.664 0 32 14.336 32 32s-14.336 32-32 32h-320c-17.664 0-32-14.336-32-32s14.336-32 32-32zM576 224.32c0-17.664 14.336-32 32-32s32 14.336 32 32c0 17.664-14.336 32-32 32s-32-14.336-32-32zM704 224.32c0-17.664 14.336-32 32-32s32 14.336 32 32c0 17.664-14.336 32-32 32s-32-14.336-32-32zM832 224.32c0-17.664 14.336-32 32-32s32 14.336 32 32c0 17.664-14.336 32-32 32s-32-14.336-32-32z" />
<glyph unicode="&#xe912;" glyph-name="arrow-right" d="M1030.451 444.913c-0.493 12.019-5.071 22.883-12.372 31.326l0.055-0.065-242.454 257.609c-16.457 14.746-47.952 20.831-66.297 3.789-8.232-8.508-13.305-20.116-13.305-32.91 0-13.028 5.261-24.828 13.775-33.389l-0.002 0.002 170.481-180.868h-834.882c-0.243 0.005-0.529 0.007-0.816 0.007-25.11 0-45.466-20.356-45.466-45.466s20.356-45.466 45.466-45.466c0.287 0 0.573 0.003 0.858 0.008l-0.043-0.001h834.882l-170.481-180.941c-7.932-8.821-12.784-20.55-12.784-33.413 0-12.614 4.666-24.139 12.365-32.942l-0.050 0.058c17.876-16.984 50.556-11.542 66.297 3.789l242.469 257.609c7.625 7.884 12.324 18.64 12.324 30.493 0 0.27-0.002 0.54-0.007 0.809l0.001-0.040z" />
<glyph unicode="&#xe913;" glyph-name="document" d="M832 896.32h-192c0 35.328-28.672 64-64 64h-128c-35.328 0-64-28.672-64-64h-192c-35.328 0-64-28.672-64-64v-832c0-35.328 28.672-64 64-64h640c35.328 0 64 28.672 64 64v832c0 35.328-28.672 64-64 64zM832 64.32h-640v768h128c0-35.328 28.672-64 64-64h256c35.328 0 64 28.672 64 64h128v-768zM256 608.32c0-17.664 14.336-32 32-32h448c17.664 0 32 14.336 32 32s-14.336 32-32 32h-448c-17.664 0-32-14.336-32-32zM736 448.32h-448c-17.664 0-32-14.336-32-32s14.336-32 32-32h448c17.664 0 32 14.336 32 32s-14.336 32-32 32zM736 256.32h-448c-17.664 0-32-14.336-32-32s14.336-32 32-32h448c17.664 0 32 14.336 32 32s-14.336 32-32 32z" />
<glyph unicode="&#xe914;" glyph-name="bag-empty" d="M512.123 959.99c-125.171-0.855-226.312-102.523-226.312-227.815 0-0.682 0.003-1.364 0.009-2.045l-0.001 0.104v-33.454h-172.37c-0.108 0.002-0.235 0.003-0.363 0.003-14.387 0-26.051-11.663-26.051-26.051 0-0.174 0.002-0.347 0.005-0.52v0.026-547.226c0.155-102.915 83.289-186.362 186.070-187.023h478.005c102.847 0.661 185.983 84.114 186.132 187.019v547.23c0.003 0.147 0.005 0.32 0.005 0.494 0 14.387-11.663 26.051-26.051 26.051-0.128 0-0.255-0.001-0.382-0.003h-172.33v33.464c0.005 0.561 0.008 1.225 0.008 1.889 0 125.323-101.169 227.017-226.293 227.865h-0.081zM339.784 730.276c-0.029 1.187-0.046 2.584-0.046 3.986 0 95.209 77.182 172.39 172.39 172.39s172.39-77.182 172.39-172.39c0-1.401-0.017-2.799-0.050-4.193l0.004 0.207v-33.464h-344.689zM884.388 642.519v-520.673c0-0.067 0-0.147 0-0.226 0-73.684-59.613-133.444-133.241-133.682h-478.026c-73.651 0.239-133.264 59.999-133.264 133.683 0 0.079 0 0.159 0 0.238v-0.012 520.673h145.93v-83.118c0-14.585 11.824-26.409 26.409-26.409s26.409 11.824 26.409 26.409v83.118h345.825v-83.118c0-14.585 11.824-26.409 26.409-26.409s26.409 11.824 26.409 26.409v0 83.118z" />
<glyph unicode="&#xe915;" glyph-name="error" d="M742.848 941.568c-12.032 12.032-28.288 18.752-45.312 18.752h-371.072c-16.96 0-33.28-6.72-45.248-18.752l-262.4-262.464c-12.096-11.968-18.816-28.224-18.816-45.248v-371.136c0-16.96 6.72-33.28 18.752-45.248l262.4-262.464c12.032-11.968 28.288-18.688 45.312-18.688h371.136c16.96 0 33.28 6.72 45.248 18.752l262.4 262.464c12.032 11.968 18.752 28.224 18.752 45.248v371.072c0 16.96-6.72 33.28-18.752 45.248l-262.4 262.464zM960 262.784l-262.464-262.464h-371.072l-262.464 262.464v371.072l262.464 262.464h371.136l262.4-262.464v-371.072zM512 768.32c-35.328 0-64-28.672-64-64v-320c0-35.328 28.672-64 64-64s64 28.672 64 64v320c0 35.328-28.672 64-64 64zM448 192.32c0-35.36 28.64-64 64-64s64 28.64 64 64c0 35.36-28.64 64-64 64s-64-28.64-64-64z" />
<glyph unicode="&#xe916;" glyph-name="check" d="M888.72 838.982l-67.174-66.43-459.869-459.869-243.619 194.895-118.095-147.624 375.752-300.46 60.528 59.783 586.082 586.082z" />
<glyph unicode="&#xe917;" glyph-name="flickr" d="M0 451.84c0-117.824 95.488-213.312 213.312-213.312s213.312 95.488 213.312 213.312c0 117.824-95.488 213.312-213.312 213.312s-213.312-95.488-213.312-213.312zM597.376 451.84c0-117.824 95.488-213.312 213.312-213.312s213.312 95.488 213.312 213.312c0 117.824-95.488 213.312-213.312 213.312s-213.312-95.488-213.312-213.312z" />
<glyph unicode="&#xe918;" glyph-name="gift" d="M960 704.32h-896c-35.328 0-64-28.672-64-64v-192h64v-448c0-35.328 28.672-64 64-64h768c35.328 0 64 28.672 64 64v448h64v192c0 35.328-28.672 64-64 64zM64 640.32h384v-128h-384v128zM128 0.32v448h320v-448h-320zM896 0.32h-318.656v448h318.656v-448zM960 512.32h-382.656v128h382.656v-128zM512 768.32c0 0.128-0.064 0.384-0.064 0.512h0.192c-0.064-0.128-0.128-0.384-0.128-0.512 0 0 167.616 0 256 0s128 43.008 128 96-39.616 96-128 96c-82.752 0-147.904-37.248-192-80.448-19.328 11.456-41.664 18.432-65.856 18.432-23.168 0-44.608-6.528-63.424-17.152-44.032 42.688-108.8 79.168-190.72 79.168-88.384 0-128-43.008-128-96s39.616-96 128-96c88.384 0 256 0 256 0zM832 864.32c0-26.432-34.816-32-64-32h-145.344c-0.512 0.896-0.96 1.856-1.472 2.688 32.512 31.616 81.792 61.312 146.816 61.312 29.184 0 64-5.568 64-32zM192 864.32c0 26.432 34.816 32 64 32 63.616 0 111.872-28.48 144.384-59.008-1.024-1.6-1.792-3.328-2.752-4.992h-141.632c-29.184 0-64 5.568-64 32z" />
<glyph unicode="&#xe919;" glyph-name="globe" d="M512 928c-265.088 0-480-214.912-480-480s214.912-480 480-480 480 214.912 480 480-214.912 480-480 480zM862.016 672h-95.36c-18.56 58.368-44.032 109.504-74.752 150.528 69.632-33.6 128.576-85.888 170.112-150.528zM544 672v186.752c60.48-17.856 119.424-84.928 155.712-186.752h-155.712zM718.336 608c9.024-39.168 14.848-82.048 16.704-128h-191.040v128h174.336zM480 858.752v-186.752h-155.712c36.288 101.824 95.232 168.896 155.712 186.752zM480 608v-128h-191.040c1.856 45.952 7.68 88.832 16.704 128h174.336zM224.96 480h-127.36c3.456 44.992 13.76 88.128 30.464 128h112.64c-8.576-40.512-13.952-83.328-15.744-128zM224.96 416c1.792-44.672 7.168-87.488 15.744-128h-112.64c-16.704 39.872-27.008 83.008-30.464 128h127.36zM288.96 416h191.040v-128h-174.336c-9.024 39.168-14.848 82.048-16.704 128zM480 224v-186.752c-60.48 17.856-119.424 84.928-155.712 186.752h155.712zM544 37.248v186.752h155.712c-36.288-101.824-95.232-168.896-155.712-186.752zM544 288v128h191.040c-1.856-45.952-7.68-88.832-16.704-128h-174.336zM799.040 416h127.36c-3.456-44.992-13.76-88.128-30.464-128h-112.64c8.576 40.512 13.952 83.328 15.744 128zM799.040 480c-1.792 44.672-7.168 87.488-15.744 128h112.64c16.704-39.872 27.008-83.008 30.464-128h-127.36zM332.096 822.528c-30.656-41.024-56.192-92.16-74.752-150.528h-95.36c41.536 64.64 100.48 116.928 170.112 150.528zM161.984 224h95.36c18.56-58.368 44.032-109.504 74.752-150.528-69.632 33.6-128.576 85.888-170.112 150.528zM691.904 73.472c30.656 41.024 56.192 92.16 74.752 150.528h95.36c-41.536-64.64-100.48-116.928-170.112-150.528z" />
<glyph unicode="&#xe91a;" glyph-name="google" d="M274.304 29.056c169.6 0 263.296 96.256 263.296 193.024 0 77.568-22.912 124.096-93.696 174.144-24.192 17.152-70.528 58.816-70.528 83.328 0 28.736 8.192 42.88 51.456 76.672 44.288 34.624 75.648 83.328 75.648 139.904 0 67.392-30.016 133.12-86.4 154.752h84.928l60.032 43.328c0 0-200.96 0-267.968 0-120.064 0-233.088-91.008-233.088-196.416 0-107.712 81.856-194.688 204.096-194.688 8.512 0 16.768 0.192 24.832 0.768-7.936-15.168-13.632-32.256-13.632-50.048 0-29.952 16.128-54.208 36.48-74.048-15.36 0-30.272-0.448-46.464-0.448-148.8 0.064-263.296-94.72-263.296-192.96 0-96.768 125.568-157.312 274.304-157.312zM300.8 530.432c-69.056 2.048-134.656 77.248-146.56 167.872-11.904 90.688 34.368 160.064 103.36 158.016s134.656-74.816 146.56-165.44c11.968-90.688-34.368-162.496-103.36-160.448zM291.648 354.368c24-0.256 46.4-4.096 66.688-10.688 55.808-38.72 95.872-60.672 107.136-104.96 2.112-8.96 3.264-18.176 3.264-27.648 0-78.208-50.368-139.328-194.944-139.328-102.848 0-177.088 65.088-177.088 143.296 0 76.672 92.096 140.416 194.944 139.328zM832 704.32v189.888h-64v-189.888h-192v-64h192v-194.112h64v194.112h192v64z" />
<glyph unicode="&#xe91b;" glyph-name="heart-empty" d="M1023.488 517.632c-2.688 157.056-130.112 297.024-287.488 297.024-91.008 0-171.2-47.616-224-117.504-52.8 69.888-132.992 117.504-224 117.504-157.376 0-284.8-139.968-287.488-297.024h-0.512c0-0.96 0.192-1.856 0.192-2.816 0-0.704-0.192-1.408-0.192-2.176 0-4.416 1.088-7.744 1.28-11.968 14.080-400.256 506.688-564.352 506.688-564.352s499.84 163.904 514.624 563.712c0.256 4.48 1.408 8 1.408 12.608 0 0.768-0.192 1.472-0.192 2.176 0 1.024 0.192 1.856 0.192 2.816h-0.512zM958.656 502.4c-11.328-307.2-362.112-463.36-450.56-497.856-87.68 34.56-432.064 190.016-442.88 499.072-0.128 3.2-0.448 6.144-0.896 9.344 0.064 1.152 0.128 2.368 0.192 3.584 2.176 126.912 104.512 234.112 223.488 234.112 65.664 0 128.704-33.536 172.928-92.096 12.096-16 30.976-25.408 51.072-25.408s38.976 9.408 51.072 25.408c44.224 58.56 107.264 92.096 172.928 92.096 118.976 0 221.312-107.2 223.488-234.112 0-1.216 0.064-2.432 0.192-3.648-0.448-3.136-0.832-6.464-1.024-10.496z" />
<glyph unicode="&#xe91c;" glyph-name="chevron-down" d="M113.219 759.652l-113.219-111.972 511.354-510.13 511.354 510.13-113.219 111.972-398.136-398.158z" />
<glyph unicode="&#xe91d;" glyph-name="remove" horiz-adv-x="925" d="M175.744-63.968c-53.86 0.161-97.514 43.625-97.984 97.395v683.661h-42.272c-19.617 0-35.52 15.903-35.52 35.52s15.903 35.52 35.52 35.52h227.456l29.248 97.984c13.348 42.943 52.604 73.636 99.071 73.92h142.625c46.543-0.229 85.852-30.94 99.002-73.182l0.198-0.738 29.28-97.984h227.2c0.181 0.003 0.395 0.005 0.609 0.005 19.057 0 34.518-15.395 34.623-34.427v-0.010c0-0.009 0-0.021 0-0.032 0-19.599-15.889-35.488-35.488-35.488h-41.088v-684.192c-0.018-54.090-43.862-97.934-97.95-97.952h-0.002zM148.704 35.232c0-0.048 0-0.104 0-0.161 0-14.972 12.083-27.123 27.030-27.231h573.674c11.722 0.146 21.643 7.693 25.318 18.178l0.058 0.19h2.496v691.936h-628.576zM360.864 865.664l-24.672-77.536h252.32l-22.88 77.44c-3.762 13.638-16.056 23.488-30.652 23.488-0.047 0-0.093 0-0.139 0h-143.545c-14.308-0.59-26.237-10.137-30.368-23.157l-0.064-0.235zM597.664 216.832v285.184c0 19.626 15.91 35.536 35.536 35.536s35.536-15.91 35.536-35.536v0-285.216c0-19.626-15.91-35.536-35.536-35.536s-35.536 15.91-35.536 35.536v0zM426.912 216.832v285.184c0 19.626 15.91 35.536 35.536 35.536s35.536-15.91 35.536-35.536v0-285.216c0-19.626-15.91-35.536-35.536-35.536s-35.536 15.91-35.536 35.536v0zM256.192 216.832v285.184c0 19.617 15.903 35.52 35.52 35.52s35.52-15.903 35.52-35.52v0-285.216c0-19.617-15.903-35.52-35.52-35.52s-35.52 15.903-35.52 35.52v0z" />
<glyph unicode="&#xe91e;" glyph-name="home" d="M52.992 392.128l459.008 397.824 459.008-397.824c6.080-5.248 13.568-7.808 20.992-7.808 8.96 0 17.856 3.776 24.192 11.008 11.584 13.376 10.112 33.536-3.2 45.184l-480 416c-12.032 10.432-29.888 10.432-41.92 0l-171.072-148.224v60.032c0 35.328-28.672 64-64 64s-64-28.672-64-64v-170.944l-180.992-156.864c-13.312-11.584-14.784-31.808-3.2-45.184 11.648-13.312 31.808-14.784 45.184-3.2zM384 256.32h256v-320h192c35.328 0 64 28.672 64 64v313.664c0 19.2-8.576 37.312-23.424 49.472l-320 262.336c-11.776 9.664-26.176 14.528-40.576 14.528s-28.8-4.864-40.576-14.528l-320-262.336c-14.848-12.096-23.424-30.272-23.424-49.472v-313.664c0-35.328 28.672-64 64-64h192v320z" />
<glyph unicode="&#xe91f;" glyph-name="info" d="M448 656c0 26.4 21.6 48 48 48h32c26.4 0 48-21.6 48-48v-32c0-26.4-21.6-48-48-48h-32c-26.4 0-48 21.6-48 48v32zM640 192h-256v64h64v192h-64v64h192v-256h64zM512 960c-282.784 0-512-229.216-512-512s229.216-512 512-512 512 229.216 512 512-229.216 512-512 512zM512 32c-229.76 0-416 186.24-416 416s186.24 416 416 416 416-186.24 416-416-186.24-416-416-416z" />
<glyph unicode="&#xe920;" glyph-name="chevron-left" d="M822.45 846.781l-111.972 113.219-510.13-511.354 510.13-511.354 111.972 113.219-398.158 398.136z" />
<glyph unicode="&#xe921;" glyph-name="location" d="M486.784 434.752c91.968 0 166.784 74.816 166.784 166.784s-74.816 166.784-166.784 166.784-166.784-74.816-166.784-166.784c0-91.968 74.816-166.784 166.784-166.784zM486.784 704.32c56.64 0 102.784-46.080 102.784-102.784s-46.080-102.784-102.784-102.784-102.784 46.144-102.784 102.784 46.080 102.784 102.784 102.784zM463.488-46.336c5.376-5.952 10.56-9.792 15.552-12.48 0.064-0.064 0.192-0.064 0.256-0.128 3.456-1.792 6.848-3.136 10.048-3.136s6.592 1.344 10.048 3.136c0.064 0.064 0.192 0.064 0.256 0.128 4.992 2.688 10.176 6.528 15.552 12.48 0 0 297.472 323.52 327.36 603.84 1.792 14.464 3.008 29.12 3.008 44.032 0 198.144-160.64 358.784-358.784 358.784s-358.784-160.64-358.784-358.784c0-15.168 1.216-29.952 3.072-44.608 30.656-280.192 332.416-603.264 332.416-603.264zM486.784 896.32c162.56 0 294.784-132.224 294.784-294.784 0-10.816-0.768-22.336-2.624-37.248-22.912-214.784-224.576-466.816-289.536-543.488-66.624 76.8-271.168 328.192-294.848 544-1.728 14.144-2.56 25.792-2.56 36.736 0 162.56 132.224 294.784 294.784 294.784z" />
<glyph unicode="&#xe922;" glyph-name="chevron-right" d="M200.348 50.51l111.972-113.219 510.13 511.354-510.13 511.354-111.972-113.219 398.158-398.136z" />
<glyph unicode="&#xe923;" glyph-name="phone" d="M422.912 702.272c-12.224 140.608-158.912 209.6-165.12 212.416-5.824 2.752-12.352 3.584-18.624 2.496-169.344-28.096-194.816-126.656-195.84-130.752-1.408-5.76-1.152-11.712 0.64-17.28 201.984-626.688 621.76-742.848 759.744-781.056 10.624-2.944 19.392-5.312 26.048-7.488 3.2-1.088 6.528-1.536 9.856-1.536 4.544 0 9.088 0.96 13.248 2.88 4.224 1.92 103.936 48.896 128.32 202.112 1.088 6.656 0 13.568-3.072 19.584-2.176 4.224-54.336 103.488-198.976 138.56-10.112 2.624-20.48-0.064-28.288-6.72-45.632-38.976-108.672-80.512-135.872-84.8-182.336 89.152-284.16 260.224-288 292.672-2.24 18.24 39.552 82.304 87.616 134.4 6.080 6.592 9.152 15.552 8.32 24.512z" />
<glyph unicode="&#xe924;" glyph-name="chevron-up" d="M909.49 137.55l113.219 111.972-511.354 510.13-511.354-510.13 113.219-111.972 398.136 398.158z" />
<glyph unicode="&#xe925;" glyph-name="cross" d="M768.006 704.009c-18.603 18.603-48.765 18.603-67.368 0v0l-188.629-188.629-188.629 188.629c-18.603 18.603-48.765 18.603-67.368 0s-18.603-48.765 0-67.368v0l188.629-188.629-188.641-188.641c-18.603-18.603-18.603-48.765 0-67.368s48.765-18.603 67.368 0v0l188.641 188.641 188.641-188.641c18.603-18.603 48.765-18.603 67.368 0s18.603 48.765 0 67.368v0l-188.641 188.641 188.629 188.629c18.603 18.603 18.603 48.765 0 67.368v0z" />
<glyph unicode="&#xe926;" glyph-name="protected" d="M494.4-61.184c5.76-1.664 11.712-2.496 17.6-2.496s11.84 0.832 17.6 2.496c396.096 113.152 454.4 513.536 429.952 709.504-4.032 31.936-31.296 56-63.552 56-9.152 0.704-64 10.176-64 128 0 16.96-6.72 33.28-18.752 45.248-13.824 13.824-93.248 82.752-301.248 82.752s-287.424-68.928-301.248-82.752c-12.032-11.968-18.752-28.288-18.752-45.248 0-117.824-54.848-127.296-65.856-128.064-32.256 0-57.664-24-61.696-56-24.448-195.904 33.92-596.288 429.952-709.44zM128 640.32c0 0 128 0 128 192 0 0 64 64 256 64v-448h376.896c-25.216-159.424-109.824-371.712-376.896-448v448h-376.896c-17.024 108.032-7.104 192-7.104 192z" />
<glyph unicode="&#xe927;" glyph-name="question" d="M92.8 448c0 230.4 188.8 419.2 419.2 419.2s419.2-185.6 419.2-419.2-188.8-419.2-419.2-419.2-419.2 188.8-419.2 419.2zM0 448c0-281.6 230.4-512 512-512s512 230.4 512 512-230.4 512-512 512-512-230.4-512-512zM451.2 342.4h99.2c-3.2 19.2 0 28.8 3.2 44.8 6.4 16 12.8 32 25.6 44.8 9.6 16 22.4 28.8 35.2 41.6s25.6 25.6 35.2 41.6c9.6 12.8 19.2 28.8 28.8 44.8 6.4 16 9.6 35.2 9.6 54.4 0 25.6-3.2 48-12.8 67.2-9.6 22.4-22.4 38.4-38.4 54.4-16 12.8-35.2 22.4-57.6 28.8s-44.8 9.6-73.6 9.6c-35.2 0-67.2-6.4-96-22.4s-54.4-35.2-73.6-57.6l64-54.4c12.8 16 28.8 25.6 44.8 35.2s35.2 12.8 54.4 12.8c25.6 0 44.8-6.4 57.6-19.2s22.4-32 22.4-54.4c0-12.8-3.2-28.8-9.6-41.6s-16-25.6-25.6-38.4c-9.6-12.8-22.4-25.6-35.2-38.4s-22.4-28.8-32-44.8c-9.6-16-16-32-22.4-51.2-6.4-22.4-6.4-35.2-3.2-57.6zM425.6 198.4c0-22.4 6.4-38.4 19.2-54.4 12.8-12.8 32-19.2 51.2-19.2 22.4 0 38.4 6.4 51.2 19.2s22.4 32 22.4 54.4c0 22.4-6.4 38.4-22.4 51.2-12.8 12.8-32 19.2-51.2 19.2s-38.4-6.4-51.2-19.2c-12.8-12.8-19.2-32-19.2-51.2z" />
<glyph unicode="&#xe929;" glyph-name="envelope" d="M97.116 801.28c-53.832-0.913-97.122-44.767-97.122-98.731 0-0.368 0.002-0.736 0.006-1.103v0.056-504.187c-0.004-0.325-0.006-0.71-0.006-1.095 0-54.032 43.25-97.963 97.020-99.061l0.103-0.002h825.508c53.872 1.1 97.122 45.030 97.122 99.063 0 0.385-0.002 0.769-0.007 1.153l0.001-0.058v504.187c0.004 0.311 0.006 0.679 0.006 1.048 0 53.964-43.289 97.818-97.036 98.73l-0.086 0.001zM97.116 752.722h825.508c7.313-0.062 14.22-1.736 20.404-4.682l-0.293 0.126-401.408-371.415c-7.894-7.953-18.832-12.877-30.92-12.877s-23.025 4.923-30.917 12.874l-0.003 0.003-402.094 371.415c5.778 2.771 12.546 4.439 19.692 4.556l0.041 0.001zM49.316 707.953l284.918-263.291-279.593-272.015c-3.787 7.159-6.028 15.642-6.072 24.644v504.211c0.147 2.412 0.417 4.627 0.81 6.799l-0.052-0.348zM970.445 707.574c0.338-1.716 0.607-3.798 0.749-5.915l0.008-0.158v-504.187c0-0.019 0-0.041 0-0.063 0-8.824-2.103-17.158-5.836-24.526l0.142 0.31-278.845 272.015zM651.397 412.426l272.773-266.701h-828.18l273.9 266.322 76.636-70.943c16.744-15.488 39.224-24.987 63.923-24.987s47.179 9.5 63.986 25.044l-0.063-0.057z" />
<glyph unicode="&#xe92a;" glyph-name="facebook" horiz-adv-x="544" d="M508.314 388.164l28.178 183.883h-176.442v119.259c-0.229 2.434-0.359 5.263-0.359 8.123 0 50.797 41.179 91.976 91.976 91.976 4.134 0 8.205-0.273 12.195-0.801l-0.468 0.051h80.264v156.945c-42.127 7.168-91.131 11.649-141.040 12.392l-0.748 0.009c-5.097 0.412-11.035 0.647-17.027 0.647-124.005 0-224.532-100.526-224.532-224.532 0-8.333 0.454-16.561 1.339-24.659l-0.089 1.001v-140.203h-161.561v-184.090h161.561v-444.379c29.883-4.919 64.322-7.73 99.417-7.73s69.534 2.811 103.103 8.22l-3.686-0.49v444.379z" />
<glyph unicode="&#xe92b;" glyph-name="settings" d="M880.832 554.496c-8.064 28.032-19.008 54.72-32.896 79.744l63.616 133.824c-23.616 29.44-50.368 56.192-79.808 79.808l-133.824-63.616c-24.96 13.824-51.712 24.832-79.744 32.896l-49.792 139.904c-18.496 2.048-37.312 3.264-56.384 3.264s-37.888-1.216-56.384-3.264l-49.792-139.904c-27.968-8.064-54.72-19.072-79.68-32.896l-133.888 63.616c-29.44-23.616-56.192-50.368-79.808-79.808l63.616-133.824c-13.824-24.96-24.832-51.712-32.896-79.744l-139.904-49.792c-2.048-18.496-3.264-37.312-3.264-56.384s1.216-37.888 3.264-56.384l139.968-49.792c8.064-28.032 19.008-54.72 32.896-79.744l-63.616-133.824c23.616-29.44 50.368-56.256 79.808-79.808l133.824 63.616c24.96-13.824 51.712-24.832 79.744-32.896l49.792-139.968c18.432-1.984 37.248-3.2 56.32-3.2s37.888 1.216 56.384 3.264l49.792 139.968c28.032 8.064 54.72 19.008 79.744 32.896l133.824-63.616c29.44 23.616 56.256 50.368 79.808 79.808l-63.616 133.824c13.824 24.96 24.832 51.712 32.896 79.744l139.968 49.792c1.984 18.432 3.2 37.248 3.2 56.32s-1.216 37.888-3.264 56.384l-139.904 49.792zM512 192.32c-141.376 0-256 114.624-256 256s114.624 256 256 256 256-114.624 256-256c0-141.376-114.624-256-256-256zM384 448.32c0-70.688 57.312-128 128-128s128 57.312 128 128c0 70.688-57.312 128-128 128s-128-57.312-128-128z" />
<glyph unicode="&#xe92c;" glyph-name="star-empty" d="M1020.288 546.048c-7.552 23.168-27.584 40.064-51.648 43.584l-275.84 40.064-123.392 249.92c-10.816 21.888-33.024 35.712-57.408 35.712s-46.592-13.824-57.408-35.712l-123.328-249.92-275.84-40.064c-24.128-3.52-44.16-20.416-51.648-43.584-7.552-23.168-1.28-48.576 16.192-65.6l199.616-194.56-47.104-274.752c-4.096-24 5.76-48.256 25.472-62.592 11.072-8.128 24.256-12.224 37.568-12.224 10.176 0 20.416 2.432 29.76 7.36l246.72 129.728 246.72-129.728c9.344-4.928 19.584-7.36 29.76-7.36 13.248 0 26.496 4.096 37.632 12.224 19.712 14.336 29.568 38.592 25.472 62.592l-47.104 274.752 199.616 194.56c17.408 16.96 23.68 42.432 16.192 65.6zM735.68 308.224l52.8-307.904-276.48 145.344-276.48-145.344 52.8 307.904-223.68 218.048 309.12 44.928 138.24 280.128 138.24-280.128 309.12-44.928-223.68-218.048z" />
<glyph unicode="&#xe92d;" glyph-name="star-full" d="M664.192 583.744l-156.8 317.696-156.8-317.696-350.592-50.944 253.696-247.296-59.904-349.184 313.6 164.864 313.6-164.864-59.904 349.184 253.696 247.296z" />
<glyph unicode="&#xe92e;" glyph-name="heart-full" d="M274.739 913.92c-170.23 0-274.739-148.92-274.739-271.022 0-264.059 300.124-509.204 512-665.201 211.876 156.058 512 401.142 512 665.201 0 122.112-104.448 271.022-274.739 271.022-95.089 0-176.343-75.827-237.261-147.825-60.969 72.049-142.172 147.825-237.261 147.825z" />
<glyph unicode="&#xe92f;" glyph-name="triangle-down" d="M533.824 330.752c0.32 0.384 0.448 0.896 0.768 1.28l223.424 246.848c12.48 13.888 12.48 36.416 0 50.304-0.128 0.128-0.256 0.192-0.384 0.256-5.76 6.72-13.824 10.88-22.784 10.88h-446.912c-9.152 0-17.28-4.416-23.104-11.264l-0.128 0.128c-12.48-13.888-12.48-36.416 0-50.304l223.936-248.128c12.48-13.888 32.704-13.888 45.184 0z" />
<glyph unicode="&#xe930;" glyph-name="triangle-left" d="M578.56 695.616l-248.128-224c-13.888-12.48-13.888-32.704 0-45.12 0.384-0.32 0.896-0.448 1.28-0.768l246.848-223.424c13.888-12.48 36.416-12.48 50.304 0 0.128 0.128 0.128 0.256 0.256 0.384 6.72 5.76 10.88 13.824 10.88 22.784v446.912c0 9.152-4.416 17.28-11.264 23.040l0.128 0.128c-13.888 12.48-36.416 12.48-50.304 0.064z" />
<glyph unicode="&#xe931;" glyph-name="triangle-right" d="M444.608 201.088l244.864 224.512c13.696 12.48 13.696 32.768 0 45.248-0.384 0.32-0.896 0.448-1.28 0.768l-243.584 224c-13.696 12.48-35.968 12.48-49.664 0-0.064-0.128-0.128-0.32-0.256-0.448-6.528-5.76-10.688-13.824-10.688-22.848v-448c0-9.152 4.352-17.28 11.072-23.104l-0.128-0.128c13.76-12.544 35.968-12.544 49.664 0z" />
<glyph unicode="&#xe932;" glyph-name="triangle-up" d="M287.936 320.32h446.912c9.152 0 17.28 4.416 23.040 11.264l0.128-0.128c12.48 13.888 12.48 36.416 0 50.304l-223.936 248.128c-12.48 13.888-32.704 13.888-45.12 0-0.32-0.384-0.448-0.896-0.768-1.28l-223.488-246.848c-12.48-13.888-12.48-36.416 0-50.304 0.128-0.128 0.256-0.192 0.384-0.32 5.824-6.656 13.824-10.816 22.848-10.816z" />
<glyph unicode="&#xe933;" glyph-name="truck" d="M1024 384l-128 256h-192v128c0 35.2-28.8 64-64 64h-576c-35.2 0-64-28.8-64-64v-512l64-64h81.152c-10.912-18.816-17.152-40.672-17.152-64 0-70.688 57.312-128 128-128s128 57.312 128 128c0 23.328-6.272 45.184-17.152 64h354.336c-10.912-18.816-17.184-40.672-17.184-64 0-70.688 57.312-128 128-128s128 57.312 128 128c0 23.328-6.272 45.184-17.184 64h81.184v192zM704 384v160h132.672l80-160h-212.672z" />
<glyph unicode="&#xe934;" glyph-name="instagram" d="M511.97 960c-138.86 0-156.489-0.604-211.308-3.079-44.806-0.948-87.313-9.591-126.643-24.654l2.575 0.867c-35.44-13.59-65.649-33.671-90.524-59.008l-0.037-0.038c-25.374-24.912-45.456-55.121-58.464-88.845l-0.582-1.715c-14.275-36.86-22.963-79.491-23.901-124.030l-0.007-0.401c-2.475-54.638-3.079-72.026-3.079-211.067s0.604-156.489 3.079-211.308c0.918-44.884 9.564-87.479 24.654-126.884l-0.866 2.575c13.59-35.44 33.671-65.649 59.008-90.524l0.038-0.037c24.912-25.374 55.121-45.456 88.845-58.464l1.715-0.582c36.831-14.222 79.425-22.868 123.919-23.781l0.391-0.006c54.336-2.475 72.026-3.079 211.308-3.079s156.489 0.604 211.308 3.079c44.884 0.919 87.479 9.565 126.885 24.654l-2.575-0.866c68.97 27.184 122.543 80.757 149.109 147.954l0.618 1.773c14.222 36.831 22.868 79.425 23.781 123.919l0.006 0.391c2.475 54.336 3.079 72.026 3.079 211.308s-0.604 156.489-3.079 211.308c-0.919 44.884-9.565 87.479-24.654 126.885l0.866-2.575c-13.59 35.44-33.671 65.649-59.008 90.524l-0.038 0.037c-24.912 25.374-55.121 45.456-88.845 58.464l-1.715 0.582c-36.98 14.196-79.739 22.764-124.399 23.541l-0.334 0.005c-54.638 2.475-72.026 3.079-211.127 3.079zM511.97 867.749c136.686 0 152.927-0.543 206.901-2.958 34.25-0.417 66.873-6.846 97.037-18.277l-1.948 0.648c23.082-8.66 42.743-21.702 58.829-38.24l0.035-0.037c16.576-16.12 29.619-35.782 37.916-57.772l0.361-1.092c10.784-28.215 17.213-60.839 17.627-94.911l0.002-0.178c2.475-53.974 2.958-70.154 2.958-206.901s-0.543-152.927-2.958-206.901c-0.416-34.249-6.845-66.873-18.277-97.036l0.648 1.947c-17.603-44.768-52.373-79.538-95.992-96.742l-1.149-0.4c-28.215-10.784-60.839-17.213-94.911-17.627l-0.178-0.002c-53.974-2.475-70.154-2.958-206.901-2.958s-152.927 0.543-206.901 2.958c-34.249 0.416-66.873 6.845-97.036 18.277l1.947-0.648c-23.082 8.66-42.743 21.702-58.829 38.24l-0.035 0.037c-16.576 16.12-29.619 35.782-37.916 57.772l-0.361 1.092c-10.784 28.215-17.213 60.839-17.627 94.911l-0.002 0.178c-2.475 53.974-2.958 70.154-2.958 206.901s0.543 152.927 2.958 206.901c0.416 34.249 6.845 66.873 18.277 97.036l-0.648-1.947c8.581 23.142 21.569 42.867 38.068 59.018l0.028 0.027c16.121 16.575 35.783 29.617 57.772 37.915l1.092 0.362c28.216 10.783 60.839 17.212 94.911 17.627l0.178 0.002c53.974 2.475 70.154 2.958 206.901 2.958zM512.030 277.293c-94.262 0-170.677 76.415-170.677 170.677s76.415 170.677 170.677 170.677c94.262 0 170.677-76.415 170.677-170.677v0c0-94.262-76.415-170.677-170.677-170.677v0zM512.030 710.898c-145.211 0-262.928-117.717-262.928-262.928s117.717-262.928 262.928-262.928c145.211 0 262.928 117.717 262.928 262.928v0c0 145.211-117.717 262.928-262.928 262.928v0zM846.743 721.282c0-33.944-27.517-61.461-61.461-61.461s-61.461 27.517-61.461 61.461c0 33.944 27.517 61.461 61.461 61.461v0c33.944 0 61.461-27.517 61.461-61.461v0z" />
<glyph unicode="&#xe935;" glyph-name="menu" horiz-adv-x="1029" d="M-0.014-64v91.11h1028.848v-91.11zM-0.014 402.508v91.11h1028.848v-91.11zM-0.014 869.017v91.11h1028.848v-91.11z" />
<glyph unicode="&#xe936;" glyph-name="vimeo" d="M587.392 654.592c116.992 70.208 179.456-28.544 119.552-140.352-59.776-111.744-114.368-184.576-142.976-184.576-28.544 0-50.496 74.752-83.2 205.44-33.792 135.104-33.6 378.432-174.144 350.848-132.48-26.048-306.624-233.984-306.624-233.984l41.6-54.528c0 0 85.76 67.584 114.368 33.792s137.728-441.984 174.144-517.248c31.808-66.048 119.488-153.344 215.744-91.008 96.128 62.336 415.808 335.296 473.088 657.6 57.152 322.24-384.704 254.72-431.552-25.984z" />
<glyph unicode="&#xe937;" glyph-name="wallet" d="M704 192.32v192c0 35.328 28.672 64 64 64h192v128c0 35.328-28.672 64-64 64h-73.472l-31.232 185.536c-1.408 8.448-6.208 16-13.184 20.864-7.040 4.928-15.808 6.656-24.192 5.312l-631.744-116.224c-8.384-1.536-15.872-6.4-20.672-13.504s-6.592-15.808-4.864-24.256l11.456-57.728h-44.096c-35.328 0-64-28.672-64-64v-576c0-35.328 28.672-64 64-64h832c35.328 0 64 28.672 64 64v128h-192c-35.328 0-64 28.672-64 64zM165.696 678.72l567.872 104.512 24.064-142.912h-584.32l-7.616 38.4zM992 384.32h-224v-192h224c17.664 0 32 14.336 32 32v128c0 17.664-14.336 32-32 32zM864 256.32c-17.664 0-32 14.336-32 32s14.336 32 32 32 32-14.336 32-32c0-17.664-14.336-32-32-32z" />
<glyph unicode="&#xe938;" glyph-name="warning" d="M1012.48 30.464l-444.032 832c-11.072 20.8-32.768 33.856-56.384 33.856h-0.064c-23.616 0-45.248-12.992-56.384-33.792l-446.016-832c-10.624-19.84-10.048-43.776 1.472-63.104 11.584-19.264 32.448-31.104 54.912-31.104h889.984c22.464 0 43.328 11.776 54.912 31.104 11.584 19.264 12.16 43.2 1.6 63.040zM65.984 0.32l446.016 832 444.032-832h-890.048zM448 511.296v-192c0-35.328 28.672-64 64-64s64 28.672 64 64v192c0 35.328-28.672 64-64 64s-64-28.608-64-64zM448 128.32c0-35.36 28.64-64 64-64s64 28.64 64 64c0 35.36-28.64 64-64 64s-64-28.64-64-64z" />
<glyph unicode="&#xe939;" glyph-name="pinterest" d="M1023.942 448c0-282.737-229.204-511.941-511.942-511.941s-511.942 229.204-511.942 511.942c0 282.737 229.204 511.942 511.942 511.942 0.103 0 0.205 0 0.308 0h-0.016c282.612-0.166 511.649-229.307 511.649-511.941v0zM512 960.058c-0.049 0-0.106 0-0.163 0-282.802 0-512.058-229.256-512.058-512.058 0-215.713 133.386-400.272 322.177-475.698l3.453-1.217c-2.893 20.038-4.545 43.177-4.545 66.701 0 28.34 2.397 56.12 7 83.149l-0.409-2.905c9.297 39.938 60.053 254.48 60.053 254.48-9.691 21.714-15.335 47.055-15.335 73.713 0 0.81 0.005 1.618 0.016 2.426l-0.001-0.122c0 71.163 41.283 124.316 92.623 124.316 0.188 0.002 0.411 0.003 0.634 0.003 35.524 0 64.322-28.798 64.322-64.322 0-2.701-0.166-5.363-0.49-7.976l0.032 0.313c-10.535-65.056-25.28-122.442-44.595-177.682l2.201 7.229c-1.452-5.491-2.286-11.794-2.286-18.292 0-41.046 33.275-74.321 74.321-74.321 1.401 0 2.792 0.039 4.174 0.115l-0.192-0.008c90.986 0 160.979 95.956 160.979 234.481 0.067 1.938 0.105 4.215 0.105 6.502 0 111.609-90.477 202.087-202.087 202.087-4.254 0-8.477-0.131-12.666-0.39l0.574 0.028c-2.862 0.132-6.218 0.208-9.591 0.208-122.396 0-221.617-99.221-221.617-221.617 0-0.279 0.001-0.557 0.002-0.836v0.043c0.050-43.968 14.344-84.587 38.514-117.503l-0.389 0.555c2.571-2.734 4.151-6.426 4.151-10.486 0-1.492-0.213-2.935-0.611-4.299l0.027 0.108c-3.918-16.197-12.513-50.931-14.209-58.065-2.222-9.356-7.426-11.344-17.133-6.841-63.033 41.594-104.053 112.1-104.053 192.186 0 2.207 0.031 4.406 0.093 6.597l-0.007-0.322c0 161.506 117.358 309.913 338.273 309.913 4.585 0.25 9.952 0.392 15.352 0.392 164.401 0 297.962-132.047 300.406-295.867l0.003-0.23c0-176.475-111.101-318.45-265.707-318.45-1.418-0.053-3.083-0.083-4.756-0.083-46.398 0-87.409 23.064-112.194 58.353l-0.291 0.437s-25.67-97.769-31.927-121.685c-16.74-51.282-38.31-95.798-64.967-136.695l1.347 2.204c45.082-14.393 96.938-22.687 150.731-22.687 282.802 0 512.058 229.256 512.058 512.058 0 282.55-228.848 511.65-511.303 512.058h-0.039z" />
<glyph unicode="&#xe93a;" glyph-name="zoom-in" d="M608 960.32c-229.76 0-416-186.24-416-416 0-98.88 34.624-189.504 92.224-260.928l-271.168-271.168c-17.344-17.344-17.344-45.504 0-62.848s45.504-17.344 62.848 0l271.168 271.168c71.424-57.6 162.048-92.224 260.928-92.224 229.76 0 416 186.24 416 416s-186.24 416-416 416zM608 192.32c-194.112 0-352 157.888-352 352s157.888 352 352 352 352-157.888 352-352-157.888-352-352-352zM800 576.32h-160v160c0 17.664-14.336 32-32 32s-32-14.336-32-32v-160h-160c-17.664 0-32-14.336-32-32s14.336-32 32-32h160v-160c0-17.664 14.336-32 32-32s32 14.336 32 32v160h160c17.664 0 32 14.336 32 32s-14.336 32-32 32z" />
<glyph unicode="&#xe93b;" glyph-name="zoom-out" d="M608 960.32c-229.76 0-416-186.24-416-416 0-98.88 34.624-189.504 92.224-260.928l-271.168-271.168c-17.344-17.344-17.344-45.504 0-62.848s45.504-17.344 62.848 0l271.168 271.168c71.424-57.6 162.048-92.224 260.928-92.224 229.76 0 416 186.24 416 416s-186.24 416-416 416zM608 192.32c-194.112 0-352 157.888-352 352s157.888 352 352 352 352-157.888 352-352-157.888-352-352-352zM800 576.32h-384c-17.664 0-32-14.336-32-32s14.336-32 32-32h384c17.664 0 32 14.336 32 32s-14.336 32-32 32z" />
<glyph unicode="&#xe93c;" glyph-name="customer-service" horiz-adv-x="1365" d="M992.313-63.98c-73.976 0.861-142.545 23.285-199.92 61.262l1.377-0.857c-7.815 5.171-12.899 13.922-12.899 23.86 0 5.824 1.746 11.239 4.742 15.753l-0.066-0.105c5.161 7.702 13.83 12.704 23.667 12.704 5.815 0 11.222-1.748 15.724-4.747l-0.104 0.065c48.26-31.872 107.475-50.846 171.121-50.846 65.633 0 126.554 20.177 176.898 54.667l-1.070-0.693c4.496 3.141 10.076 5.019 16.095 5.019 3.85 0 7.52-0.768 10.866-2.16l-0.187 0.069 99.773-39.307-28.458 130.818c-0.395 1.787-0.621 3.84-0.621 5.946 0 4.792 1.171 9.311 3.243 13.285l-0.076-0.159c22.573 42.158 35.833 92.224 35.833 145.386 0 119.385-66.87 223.152-165.198 275.888l-1.673 0.82c-9.328 4.811-15.597 14.379-15.597 25.41 0 15.739 12.759 28.498 28.498 28.498 5.070 0 9.83-1.324 13.955-3.645l-0.143 0.074c118.016-63.378 196.904-185.944 196.904-326.936 0-59.185-13.901-115.124-38.617-164.729l0.968 2.146 37.242-172.091c0.471-1.937 0.74-4.16 0.74-6.447 0-8.839-4.033-16.736-10.358-21.952l-0.049-0.039c-4.888-4.143-11.225-6.712-18.159-6.858l-0.031-0.001c-3.504 0.091-6.813 0.819-9.85 2.073l0.184-0.067-135.049 54.148c-55.616-35.218-123.322-56.13-195.91-56.154h-0.006zM38.124-0.827c-6.543 5.289-10.692 13.314-10.692 22.308 0 2.702 0.375 5.317 1.074 7.795l-0.049-0.202 64.316 219.881c-57.352 68.979-92.315 158.353-92.773 255.88v0.1c0 250.886 242.383 455.124 540.398 455.044s540.458-204.178 540.458-455.044-242.363-455.104-540.458-455.104c-96.884 0.102-188.522 22.454-270.115 62.219l3.666-1.613-203.075-113.811c-4.013-2.296-8.82-3.65-13.944-3.65-0.033 0-0.067 0-0.1 0h-1.178c-6.659 0.039-12.767 2.368-17.583 6.24l0.055-0.043zM56.916 504.936c0.898-88.44 34.527-168.856 89.329-229.871l-0.286 0.323c4.218-4.961 6.783-11.442 6.783-18.521 0-2.811-0.404-5.527-1.158-8.094l0.051 0.203-48.693-170.687 156.428 88.462c3.854 2.1 8.441 3.334 13.316 3.334s9.462-1.235 13.465-3.408l-0.149 0.074c73.544-37.843 160.486-60.027 252.608-60.027 0.593 0 1.186 0.001 1.778 0.003h-0.092c266.609 0 483.562 178.628 483.482 398.209s-216.953 398.229-483.482 398.229-483.402-178.709-483.402-398.229zM711.104 504.936c0 75.827 113.791 75.827 113.791 0 0-31.423-25.473-56.896-56.896-56.896s-56.896 25.473-56.896 56.896v0zM483.582 504.936c0 75.827 113.791 75.827 113.791 0 0-31.423-25.473-56.896-56.896-56.896s-56.896 25.473-56.896 56.896v0zM256.040 504.936c0 75.827 113.731 75.827 113.731 0 0-31.406-25.46-56.865-56.865-56.865s-56.865 25.46-56.865 56.865v0z" />
<glyph unicode="&#xe93d;" glyph-name="store" horiz-adv-x="1042" d="M96.744-45.86v386.172c-51.165 10.022-90.165 51.745-95.969 103.506l-0.049 0.541c-0.458 3.387-0.719 7.303-0.719 11.279 0 0.514 0.004 1.027 0.013 1.539l-0.001-0.077c0.075 2.551 0.616 4.956 1.541 7.16l-0.049-0.132 155.226 374.864c3.020 6.488 9.395 10.952 16.836 11.17l0.028 0.001h18.414v91.522c0 0.006 0 0.013 0 0.020 0 10.062 8.157 18.218 18.218 18.218 0.007 0 0.014 0 0.021 0h621.729c0.035 0 0.076 0 0.118 0 10.076 0 18.246-8.163 18.257-18.237v-91.523h18.434c0.046 0 0.101 0.001 0.155 0.001 7.493 0 13.921-4.558 16.664-11.052l0.045-0.119 155.364-374.864c0.845-2.024 1.335-4.376 1.335-6.842 0-0.038 0-0.075 0-0.113v0.006c0.018-0.646 0.028-1.406 0.028-2.168 0-3.881-0.267-7.699-0.784-11.437l0.049 0.433c-4.643-41.814-30.496-76.676-66.411-93.924l-0.71-0.307v-395.634c-0.045-10.028-8.184-18.14-18.218-18.14 0 0 0 0 0 0h-841.289c-10.033 0.033-18.166 8.118-18.277 18.129v0.010zM224.781 301.618h182.907c0.012 0 0.026 0 0.040 0 10.049 0 18.201-8.118 18.257-18.154v-310.949h512.147v366.756c-4.345-0.593-9.409-0.955-14.549-1.001h-0.057c-21.387 33.564-58.412 55.506-100.562 55.506s-79.175-21.942-100.276-55.027l-0.286-0.48c-21.387 33.564-58.412 55.506-100.562 55.506s-79.175-21.942-100.276-55.027l-0.286-0.48c-21.387 33.564-58.412 55.506-100.562 55.506s-79.175-21.942-100.276-55.027l-0.286-0.48c-0.108 0-0.236-0.001-0.364-0.001-42.040 0-78.953 21.95-99.903 55.016l-0.286 0.483c-18.912-29.458-49.751-49.849-85.535-54.377l-0.589-0.061v-366.815h73.167v310.944c0 0.003 0 0.006 0 0.009 0 9.443 7.177 17.21 16.374 18.144l0.077 0.006h0.883c0.070 0.003 0.152 0.004 0.235 0.004 0.201 0 0.399-0.009 0.596-0.025l-0.026 0.002zM243.078-27.485h146.471v292.51h-146.392zM923.526 374.961c38.691 0.788 70.945 27.428 80.242 63.313l0.129 0.588h-160.566c8.57-36.89 41.159-63.96 80.070-63.96 0.044 0 0.088 0 0.132 0h-0.007zM722.342 374.961c0.089 0 0.194-0.001 0.299-0.001 38.856 0 71.394 27.051 79.808 63.349l0.108 0.553h-160.429c8.429-36.868 40.944-63.961 79.788-63.961 0.15 0 0.3 0 0.45 0.001h-0.023zM521.276 374.961c0.245-0.003 0.534-0.004 0.824-0.004 38.66 0 70.986 27.117 78.996 63.368l0.1 0.537h-160.35c8.711-36.911 41.372-63.96 80.352-63.96 0.028 0 0.055 0 0.083 0h-0.004zM320.151 374.961c0.024 0 0.051 0 0.079 0 38.909 0 71.504 27.034 80.025 63.344l0.11 0.557h-160.645c8.633-36.899 41.254-63.96 80.195-63.96 0.076 0 0.151 0 0.227 0h-0.012zM119.026 374.961c0.193-0.002 0.421-0.003 0.65-0.003 38.72 0 71.112 27.096 79.247 63.361l0.102 0.542h-160.429c8.711-36.911 41.372-63.96 80.352-63.96 0.021 0 0.041 0 0.062 0h-0.003zM45.741 475.435h951.030l-140.13 338.349h-670.868zM228.629 850.299h585.255v73.167h-585.255zM846.551 45.721h-329.024c-0.055-0.001-0.119-0.001-0.183-0.001-5.011 0-9.552 2.017-12.854 5.283l0.002-0.002c-3.301 3.329-5.354 7.899-5.399 12.948v219.568c0.077 5.052 2.123 9.613 5.402 12.96l-0.003-0.003c3.338 3.266 7.912 5.281 12.956 5.281 0.028 0 0.056 0 0.084 0h329.020c0.017 0 0.038 0 0.059 0 10.072 0 18.238-8.165 18.238-18.238 0 0 0 0 0 0v0-219.559c0 0 0-0.001 0-0.001 0-10.003-8.054-18.126-18.031-18.237h-0.010zM535.666 82.294h292.51v182.789h-292.51zM406 742.973c-0.179-0.006-0.389-0.010-0.599-0.010-10.105 0-18.297 8.192-18.297 18.297s8.192 18.297 18.297 18.297c0.211 0 0.421-0.004 0.63-0.011l-0.030 0.001h36.318c0.179 0.006 0.389 0.010 0.599 0.010 10.105 0 18.297-8.192 18.297-18.297s-8.192-18.297-18.297-18.297c-0.211 0-0.421 0.004-0.63 0.011l0.030-0.001zM223.112 742.973c-0.179-0.006-0.389-0.010-0.599-0.010-10.105 0-18.297 8.192-18.297 18.297s8.192 18.297 18.297 18.297c0.211 0 0.421-0.004 0.63-0.011l-0.030 0.001h109.603c0.179 0.006 0.389 0.010 0.599 0.010 10.105 0 18.297-8.192 18.297-18.297s-8.192-18.297-18.297-18.297c-0.211 0-0.421 0.004-0.63 0.011l0.030-0.001z" />
<glyph unicode="&#xe93e;" glyph-name="inventory" horiz-adv-x="960" d="M480.145-59.81c-0.19-0.011-0.413-0.017-0.637-0.017s-0.447 0.006-0.668 0.019l0.031-0.001h-0.184l-1.089 0.201c-0.119 0.036-0.219 0.076-0.315 0.123l0.013-0.006c-0.364 0.031-0.7 0.12-1.008 0.259l0.019-0.008s-0.117 0-0.302 0.117-0.62 0.251-0.855 0.369c-0.020 0.006-0.043 0.010-0.067 0.010s-0.047-0.004-0.069-0.010h0.002l-363.252 169.491c-4.237 1.965-7.124 6.182-7.124 11.074 0 0.020 0 0.039 0 0.059v-0.003 246.861l-93.277 43.579c-3.106 1.451-5.468 4.058-6.561 7.254l-0.026 0.087c-0.367 1.108-0.578 2.382-0.578 3.707 0 2.266 0.62 4.388 1.699 6.205l-0.031-0.056 97.065 168.954-97.065 168.937c-1.047 1.762-1.666 3.884-1.666 6.151 0 1.324 0.211 2.598 0.601 3.791l-0.024-0.086c1.096 3.314 3.464 5.95 6.512 7.377l0.076 0.032 363.185 169.373c1.521 0.722 3.305 1.144 5.187 1.144 4.544 0 8.514-2.456 10.654-6.114l0.032-0.058 89.757-156.35 89.824 156.35c2.152 3.714 6.107 6.172 10.637 6.172 1.876 0 3.654-0.422 5.243-1.175l-0.074 0.032 363.319-169.373c4.21-2.005 7.068-6.225 7.068-11.112 0-2.266-0.614-4.388-1.685-6.21l0.031 0.058-97.015-168.937 96.948-169.072c1.066-1.733 1.697-3.832 1.697-6.078 0-1.334-0.222-2.615-0.632-3.81l0.025 0.083c-1.094-3.297-3.433-5.925-6.446-7.376l-0.075-0.032-93.344-43.479v-246.861c0-0.023 0-0.050 0-0.077 0-4.886-2.887-9.097-7.049-11.021l-0.075-0.031-363.252-169.44s-0.134 0-0.134 0-0.603-0.251-0.905-0.369-0.184 0-0.318-0.117c-0.277-0.105-0.604-0.192-0.942-0.247l-0.030-0.004c-0.085-0.073-0.195-0.117-0.317-0.117-0.001 0-0.001 0-0.002 0v0l-1.039-0.201h-0.251c-0.352 0-0.788 0-1.274 0zM492.498 207.299v-235.48l338.747 157.942v227.569l-245.352-114.396c-1.534-0.72-3.331-1.14-5.227-1.14-0.001 0-0.002 0-0.003 0v0c-0.003 0-0.006 0-0.009 0-4.536 0-8.495 2.472-10.603 6.142l-0.031 0.059-89.824 156.283-89.757-156.283c-2.14-3.73-6.098-6.202-10.635-6.202-0.003 0-0.006 0-0.009 0v0c-0.011 0-0.023 0-0.036 0-1.884 0-3.67 0.42-5.27 1.172l0.076-0.032-245.336 114.396v-227.569l338.679-157.942v235.48c0 6.79 5.504 12.294 12.294 12.294s12.294-5.504 12.294-12.294v0zM497.527 423.52l88.181-153.433 340.825 158.897-88.131 153.5zM33.858 428.984l340.875-158.897 88.131 153.5-340.942 158.897zM492.481 453.623v-5.28l321.818 150.282-321.818 149.83v-5.28c0-6.79-5.504-12.294-12.294-12.294s-12.294 5.504-12.294 12.294v0 5.28l-321.818-150.031 321.818-150.081v5.28c0 6.79 5.504 12.294 12.294 12.294s12.294-5.504 12.294-12.294v0zM497.51 773.765l340.875-158.964 88.114 153.567-340.875 158.897zM33.774 768.368l88.131-153.567 340.942 158.964-88.198 153.5zM467.893 511.534v57.961c0 6.79 5.504 12.294 12.294 12.294s12.294-5.504 12.294-12.294v0-57.894c0-6.79-5.504-12.294-12.294-12.294s-12.294 5.504-12.294 12.294v0zM467.893 627.455v57.894c0 6.79 5.504 12.294 12.294 12.294s12.294-5.504 12.294-12.294v0-57.894c0-6.79-5.504-12.294-12.294-12.294s-12.294 5.504-12.294 12.294v0z" />
<glyph unicode="&#xe93f;" glyph-name="diamond" horiz-adv-x="1044" d="M0 475.632l214.149 267.699h616.060l214.133-267.716-522.196-539.632zM522.146 14.242l143.769 445.718h-287.52zM560.057 23.077l422.806 436.882h-281.91zM484.301 23.077l-140.963 436.882h-281.843zM716.608 493.302h270.874l-162.531 203.248zM386.608 493.302h271.059l-135.521 203.349zM56.792 493.302h270.874l-108.343 203.248zM687.213 509.075l107.133 200.913h-241.092zM357.044 509.075l134.009 200.913h-241.126zM838.843 776.674v50.039h-49.972v33.326h49.972v49.972h33.326v-49.972h49.989v-33.326h-49.989v-50.039zM172.156 776.674v50.039h-49.972v33.326h49.972v49.972h33.326v-49.972h50.039v-33.326h-50.039v-50.039zM505.516 826.713v49.972h-49.989v33.326h49.989v49.989h33.326v-49.989h49.972v-33.326h-49.972v-49.972z" />
<glyph unicode="&#xe940;" glyph-name="spirits" horiz-adv-x="1025" d="M791.141-64c-26.484 0.044-48.094 20.853-49.422 47.014l-0.005 0.119-15.868 316.299h299.047l-15.763-316.299c-1.341-26.275-22.946-47.079-49.421-47.132h-0.005zM774.66-15.186c0.386-8.786 7.603-15.763 16.449-15.763 0.011 0 0.023 0 0.034 0h168.472c8.834 0.029 16.034 6.99 16.445 15.726l0.001 0.037 9.878 199.020h-28.024v32.945h29.775l2.54 49.567h-229.566l2.4-49.567h161.871v-32.945h-160.225zM160.102-64l-4.063 2.767c-6.323 4.309-156.021 106.84-156.021 360.664 0 233.647 147.912 315.633 235.766 343.657 6.932 2.145 11.89 8.473 11.945 15.967v81.905c-20.384 22.813-32.843 53.084-32.843 86.265 0 0.294 0.001 0.587 0.003 0.881v-0.045c0.090 72.848 59.165 131.869 132.026 131.869 72.916 0 132.026-59.11 132.026-132.026 0-15.569-2.695-30.508-7.643-44.377l0.287 0.922c25.256 16.848 56.306 26.885 89.7 26.885 0.059 0 0.118 0 0.178 0h-0.009c0.032 0 0.071 0 0.109 0 91.179 0 165.094-73.915 165.094-165.094 0-61.305-33.415-114.806-83.025-143.283l-0.804-0.426c32.167-54.756 51.165-120.606 51.165-190.892 0-4.318-0.072-8.619-0.214-12.902l0.016 0.623c0-253.789-149.734-356.355-156.197-360.664l-4.309-2.767zM280.954 659.062c-0.092-22.133-14.635-40.844-34.677-47.194l-0.352-0.096c-97.259-30.931-212.979-110.15-212.979-312.358 0-214.205 114.967-312.971 137.561-330.486h352.519c22.436 17.515 137.683 117.349 137.683 330.486 0 202.208-115.86 281.427-212.979 312.358-20.362 6.494-34.879 25.177-35.029 47.272v69.727h-32.805v33.085h40.809c15.636 17.262 25.206 40.272 25.206 65.517 0 0.236-0.001 0.472-0.003 0.708v-0.036c0 54.74-44.376 99.116-99.116 99.116s-99.116-44.376-99.116-99.116v0c-0.001-0.138-0.001-0.301-0.001-0.464 0-25.335 9.625-48.422 25.417-65.805l-0.072 0.080h73.65v-33.085h-65.82zM660.639 646.136c-0.035-40.158-24.155-74.673-58.693-89.884l-0.629-0.247c7.711-7.947 15.088-16.378 22.017-25.179l0.524-0.691c41.821 22.674 69.741 66.24 69.741 116.327 0 72.839-59.047 131.886-131.886 131.886-49.623 0-92.846-27.406-115.357-67.909l-0.343-0.673v-50.705c0-0.026 0-0.058 0-0.089 0-7.497 4.989-13.828 11.828-15.855l0.117-0.030c1.506-0.508 3.293-1.261 5.062-1.751-0.272 1.417-0.455 3.076-0.507 4.767l-0.001 0.049c0 54.716 44.356 99.072 99.072 99.072s99.072-44.356 99.072-99.072v0zM495.44 646.136c0.1-6.742 1.304-13.17 3.44-19.157l-0.129 0.416c28.455-12.759 52.986-27.994 75.156-46.021l-0.613 0.483c30.995 5.441 54.254 32.138 54.296 64.275v0.004c0 36.511-29.598 66.109-66.109 66.109s-66.109-29.598-66.109-66.109v0zM116.315 134.372l-4.063 10.404c-18.74 45.802-29.628 98.954-29.652 154.646v0.009c-0.312 4.816-0.49 10.441-0.49 16.109 0 146.248 118.557 264.806 264.806 264.806s264.806-118.557 264.806-264.806c0-5.667-0.178-11.293-0.529-16.871l0.038 0.763c0-0.165 0-0.36 0-0.555 0-55.509-10.892-108.473-30.655-156.874l1.002 2.774-3.941-10.404zM115.808 299.431c-0.001-0.301-0.001-0.659-0.001-1.016 0-47.097 8.555-92.195 24.195-133.827l-0.864 2.624h415.537c14.776 39.051 23.331 84.197 23.331 131.342 0 0.308 0 0.616-0.001 0.924v-0.048c0 153.009-120.046 247.711-231.195 247.711s-231.072-94.702-231.072-247.711zM445.926 299.186v33.453h33.085v-33.453zM214.959 299.186v33.453h197.917v-33.453zM214.959 365.584v32.595h264.052v-32.595z" />
<glyph unicode="&#xe941;" glyph-name="wine" horiz-adv-x="842" d="M549.28-64v523.426c0 118.14 54.919 149.189 81.914 157.526v226.996h16.551v116.052h95.358v-117.122h16.551v-227.944c27.012-7.266 81.914-38.35 81.914-157.597v-521.285zM661.189 587.904l-14.445-1.018c-2.106 0-66.363-6.248-66.363-129.566v-492.289h230.12v492.289c0 124.406-64.274 130.567-68.452 129.566l-14.533 1.018v223.889h-66.363zM678.846 843.948h34.191v84.985h-34.191zM344.066-60.876h-296.395c-0.253-0.010-0.551-0.016-0.849-0.016-10.682 0-19.626 7.437-21.938 17.416l-0.030 0.152c-0.256 1.324-0.402 2.848-0.402 4.405 0 9.246 5.158 17.287 12.753 21.402l120.322 60.196v219.747c-90.412 18.338-157.509 97.173-157.509 191.679 0 0.013 0 0.027 0 0.040v-0.002c0.142 10.755 0.877 21.179 2.177 31.426l-0.141-1.36 25.924 335.799h335.799l25.924-336.799c1.175-8.86 1.936-19.279 2.103-29.841l0.003-0.225c-0.763-94.288-67.519-172.767-156.307-191.559l-1.289-0.228v-218.659l120.264-60.132c7.807-3.602 13.128-11.363 13.128-20.366 0-1.975-0.256-3.89-0.737-5.714l0.035 0.156c-1.904-10.019-10.499-17.524-20.883-17.727h-0.022c-0.649 0.053-1.281 0.158-1.931 0.211zM310.946-29.792l-107.767 53.884v264.328l13.445 2.036c81.597 10.96 143.884 80.057 144.064 163.738v0.019c-0.126 9.264-0.881 18.239-2.225 27.021l0.136-1.080v1.018l-7.266 88.092h-311.964l-7.266-89.092c-1.15-7.681-1.879-16.66-2.017-25.781l-0.002-0.16c0.156-83.709 62.455-152.819 143.215-163.664l0.85-0.093 13.445-2.089v-265.276l-105.608-52.883zM42.405 600.313h306.803l-14.515 188.645h-277.773zM601.057 102.864v354.439h189.681v-354.439zM632.141 133.948h127.443v130.567h-127.443zM632.141 295.599h127.443v130.637h-127.443z" />
<glyph unicode="&#xe942;" glyph-name="arrow-left" d="M0.020 447.847c0.482-11.945 5.027-22.742 12.278-31.136l-0.055 0.065 240.921-255.992c9.215-8.565 21.608-13.821 35.228-13.821 11.535 0 22.189 3.77 30.798 10.144l-0.14-0.099c8.181 8.453 13.224 19.987 13.224 32.698 0 12.953-5.235 24.683-13.706 33.189l0.002-0.002-169.371 179.899h829.608c24.954 0 45.183 20.229 45.183 45.183s-20.229 45.183-45.183 45.183h-829.608l169.403 179.771c7.886 8.768 12.709 20.428 12.709 33.215 0 12.532-4.632 23.981-12.279 32.73l0.050-0.058c-8.447 6.385-19.127 10.228-30.703 10.228-13.638 0-26.030-5.332-35.206-14.026l0.024 0.022-240.921-255.992c-7.588-7.843-12.264-18.542-12.264-30.334 0-0.304 0.003-0.608 0.009-0.91l-0.001 0.045z" />
<glyph unicode="&#xe943;" glyph-name="print" d="M170.67 924.16c-12.37-0.477-22.276-10.384-22.752-22.709l-0.001-0.044v-227.553h-56.893c-50.205-0.162-90.861-40.818-91.023-91.008v-341.356c0.162-50.205 40.818-90.861 91.008-91.023h56.909v-159.283c0.477-12.37 10.384-22.276 22.709-22.752l0.044-0.001h682.66c12.37 0.477 22.276 10.384 22.752 22.709l0.001 0.044v159.283h56.893c50.205 0.162 90.861 40.818 91.023 91.008v341.356c-0.162 50.205-40.818 90.861-91.008 91.023h-56.899v227.553c-0.478 12.373-10.39 22.281-22.72 22.752l-0.044 0.001zM193.423 878.653h637.153v-204.8h-637.153zM91.023 628.347h841.953c0.172 0.002 0.374 0.004 0.577 0.004 24.816 0 44.933-20.117 44.933-44.933 0-0.203-0.001-0.406-0.004-0.608v0.031-341.35c0.002-0.172 0.004-0.374 0.004-0.577 0-24.816-20.117-44.933-44.933-44.933-0.203 0-0.406 0.001-0.608 0.004h-56.852v159.283c-0.477 12.37-10.384 22.276-22.709 22.752l-0.044 0.001h-682.67c-12.37-0.477-22.276-10.384-22.752-22.709l-0.001-0.044v-159.283h-56.893c-0.172-0.002-0.374-0.004-0.577-0.004-24.816 0-44.933 20.117-44.933 44.933 0 0.203 0.001 0.406 0.004 0.608v-0.031 341.34c-0.002 0.172-0.004 0.374-0.004 0.577 0 24.816 20.117 44.933 44.933 44.933 0.203 0 0.406-0.001 0.608-0.004h-0.031zM853.33 571.453c-37.705 0-68.27-30.566-68.27-68.27s30.566-68.27 68.27-68.27c37.705 0 68.27 30.566 68.27 68.27v0c-0.191 37.628-30.643 68.079-68.252 68.27h-0.018zM853.33 525.947c12.566 0 22.753-10.187 22.753-22.753s-10.187-22.753-22.753-22.753c-12.566 0-22.753 10.187-22.753 22.753v0c-0.002 0.098-0.002 0.214-0.002 0.33 0 12.38 10.036 22.415 22.415 22.415 0.12 0 0.239-0.001 0.358-0.003h-0.018zM193.423 332.513h637.153v-318.577h-637.153z" />
<glyph unicode="&#xe944;" glyph-name="search" d="M412.401 960c-0.172 0-0.375 0-0.579 0-227.763 0-412.401-184.638-412.401-412.401s184.638-412.401 412.401-412.401c98.973 0 189.803 34.865 260.878 92.984l-0.736-0.583 279.092-279.092c7.739-7.721 18.421-12.495 30.218-12.495s22.479 4.774 30.219 12.496l-0.001-0.001c7.721 7.658 12.501 18.271 12.501 30s-4.78 22.343-12.498 29.997l-279.095 279.085c57.559 70.33 92.441 161.164 92.441 260.145 0 227.688-184.578 412.266-412.266 412.266-0.062 0-0.123 0-0.185 0h0.009zM412.401 874.674c0.006 0 0.014 0 0.021 0 180.65 0 327.095-146.445 327.095-327.095s-146.445-327.095-327.095-327.095c-180.65 0-327.095 146.445-327.095 327.095 0 0.007 0 0.015 0 0.022v-0.002c0 0.185-0.001 0.405-0.001 0.624 0 180.294 146.157 326.451 326.451 326.451 0.219 0 0.439 0 0.658-0.001h-0.034z" />
<glyph unicode="&#xe945;" glyph-name="secure" d="M509.747 959.98c-144.937-0.737-262.147-118.401-262.147-263.441 0-0.408 0.001-0.816 0.003-1.223v0.063-131.686h-3.697c-61.174 0-110.766-49.592-110.766-110.766 0-0.007 0-0.014 0-0.022v0.001-406.139c0.006-61.169 49.58-110.757 110.743-110.787h531.715c61.175 0.018 110.76 49.61 110.766 110.786v406.14c0 0.006 0 0.013 0 0.020 0 61.174-49.592 110.766-110.766 110.766h-3.697v131.697c0.002 0.342 0.003 0.746 0.003 1.15 0 145.047-117.221 262.716-262.098 263.441h-0.069zM296.817 695.388c0.837 116.962 95.846 211.454 212.925 211.454s212.088-94.492 212.925-211.374v-131.777h-425.851zM837.13 452.895v-406.139c-0.012-33.979-27.554-61.521-61.531-61.532h-531.713c-33.983 0-61.532 27.549-61.532 61.532v0 406.139c0 33.983 27.549 61.532 61.532 61.532v0h531.712c33.979-0.012 61.521-27.554 61.532-61.531v-0.001zM485.13 196.946v-66.488c0-13.596 11.021-24.617 24.617-24.617s24.617 11.021 24.617 24.617v0 66.488c31.718 10.664 54.159 40.127 54.159 74.831 0 43.507-35.269 78.776-78.776 78.776s-78.776-35.269-78.776-78.776c0-34.704 22.441-64.167 53.604-74.669l0.555-0.162zM509.706 302.807v0c0.357 0.015 0.777 0.023 1.198 0.023 16.966 0 30.72-13.754 30.72-30.72s-13.754-30.72-30.72-30.72c-16.958 0-30.707 13.74-30.72 30.695v0.001c0 0.027 0 0.060 0 0.092 0 16.531 13.087 30.004 29.465 30.626l0.057 0.002z" />
<glyph unicode="&#xe946;" glyph-name="minus" d="M67.654 517.748c-37.364 0-67.654-30.29-67.654-67.654s30.29-67.654 67.654-67.654v0c607.558 0 214.9-0.233 893.044 0 37.364 0 67.654 30.29 67.654 67.654s-30.29 67.654-67.654 67.654v0z" />
<glyph unicode="&#xe947;" glyph-name="twitter" horiz-adv-x="1260" d="M396.306-64c1.475-0.011 3.218-0.017 4.964-0.017 403.545 0 730.683 327.138 730.683 730.683 0 1.769-0.006 3.536-0.019 5.302l0.002-0.271c0 11.18 0 22.36-0.745 33.404 50.686 37.028 93.401 81.361 127.55 131.953l1.187 1.866c-43.251-19.692-93.424-34.008-146.039-40.408l-2.482-0.246c53.455 32.391 93.646 82.094 113.17 141.2l0.525 1.834c-47.257-28.53-102.258-50.297-160.846-62.179l-3.327-0.563c-47.295 50.007-114.108 81.13-188.19 81.13-142.947 0-258.829-115.882-258.829-258.829 0-20.601 2.407-40.639 6.954-59.85l-0.351 1.757c-215.348 11.181-404.757 113.51-531.797 268.836l-1.038 1.309c-21.786-37.202-34.651-81.92-34.651-129.642 0-89.349 45.096-168.165 113.77-214.929l0.901-0.579c-43.249 1.294-83.474 13.094-118.567 32.917l1.28-0.665v-3.252c0.342-124.578 88.436-228.482 205.71-253.178l1.692-0.298c-20.346-5.763-43.712-9.076-67.851-9.076-17.295 0-34.193 1.701-50.535 4.944l1.642-0.272c34.263-103.327 129.009-176.972 241.281-179.279l0.27-0.004c-87.413-69.308-199.314-111.188-320.996-111.188-0.036 0-0.071 0-0.107 0h0.006c-21.727 0.042-43.092 1.395-64.075 3.983l2.553-0.257c111.808-72.824 248.634-116.135 395.575-116.135 0.257 0 0.514 0 0.77 0h-0.039z" />
<glyph unicode="&#xe948;" glyph-name="user" horiz-adv-x="1023" d="M1023.363-64.031h-68.43c-18.66 230.078-209.979 409.727-443.256 409.727s-424.596-179.649-443.153-408.146l-0.103-1.581h-68.42c18.846 267.809 240.726 477.926 511.681 477.926s492.835-210.117 511.59-476.3l0.092-1.626zM272.273 721.084c0 0.121 0 0.265 0 0.408 0 132.205 107.173 239.378 239.378 239.378s239.378-107.173 239.378-239.378c0-132.205-107.173-239.378-239.378-239.378-66.085 0-125.916 26.779-169.232 70.078l0.001-0.001c-43.297 43.196-70.098 102.91-70.147 168.883v0.009zM340.703 721.084h-0.062c0-0.152-0.001-0.333-0.001-0.514 0-94.497 76.605-171.102 171.102-171.102s171.102 76.605 171.102 171.102c0 94.497-76.605 171.102-171.102 171.102-0.021 0-0.043 0-0.064 0h0.003c-0.107 0-0.233 0-0.36 0-94.232 0-170.628-76.364-170.68-170.583v-0.005z" />
<glyph unicode="&#xe949;" glyph-name="youtube" horiz-adv-x="1463" d="M731.429-64c-4.607 0-458.71 0.339-571.524 30.626-63.205 17.33-111.984 66.087-129.045 127.994l-0.302 1.285c-19.459 102.511-30.59 220.427-30.59 340.942 0 3.91 0.012 7.818 0.035 11.722l-0.003-0.603c-0.022 3.381-0.034 7.38-0.034 11.382 0 120.519 11.132 238.438 32.423 352.785l-1.831-11.835c17.425 63.108 66.187 111.781 128.063 128.775l1.284 0.301c112.746 30.558 566.916 30.558 571.524 30.558s458.71-0.339 571.524-30.626c63.177-17.351 111.928-66.102 128.977-127.994l0.302-1.285c19.503-102.524 30.659-220.454 30.659-340.989 0-3.988-0.012-7.974-0.037-11.956l0.003 0.613c0.021-3.37 0.034-7.355 0.034-11.343 0-120.536-11.156-238.465-32.493-352.813l1.833 11.824c-17.351-63.177-66.102-111.928-127.994-128.977l-1.285-0.302c-112.814-29.745-566.984-30.084-571.524-30.084zM585.143 667.429v-438.789l380.045 219.395z" />
</font>
</defs>
</svg>
